Ари (Семён Винокур) [2012, исторический,WEB-DL Rip 720p]

Ответить на тему
 
Статистика раздачи
Нет
 
 
  ВКонтакте   Twit Topic  
Автор Сообщение

krasyarBB

Freeman


Рейтинг: -

Скачано: 0 B

Отдано: 29,07 GB

Релизы: 26,48 GB [13]

Бонус: 0 B


Пол: Мужской

Возраст: 53

Стаж: 8 лет 4 месяца

Сообщений: 14

Награды: 1 (Подробнее...)

Юбилейная медаль'2013

post 19-Мар-2013 04:55

Добавить в Пикабу ВКонтакте Twitter [Цитировать] 

Ари


pic
Год выпуска: 2012
Страна: Россия, Израиль
Жанр: исторический
Продолжительность: 00:29:17
Перевод:
  • Не требуется


Режиссер: Семён Винокур

В ролях: Александр Демидов, Морис Коэн

Описание: Исторический фильм о величайшем каббалисте 16 века Ари (Рабби Ицхак Лурия Ашкенази). В 16-м веке в Иерусалиме рождается мальчик, которому суждено было постичь главную тайну мироздания и открыть путь спасению человечества. В 35 лет, взойдя на вершину духовной лестницы, он появляется в Цфате, чтобы передать другим обретенную Мудрость. Он спешит, ведь жить ему остается всего... полтора года.

Качество: WEB-DL Rip 720p
Формат: MP4
Видео: MPEG-4 AVC (H.264), 1280x720, 25,000 fps, 2525 Kbps, 0.110 bit/pixel
Аудио: AAC, 44,1 kHz, 2 (L,R) ch, 152 kb/s


Скриншоты:
pic pic pic pic
MediaInfo
Общее
Полное имя : Ari.mp4
Формат : MPEG-4
Профиль формата : Base Media / Version 2
Идентификатор кодека : mp42
Размер файла : 561 Мбайт
Продолжительность : 29 м.
Режим общего битрейта : Переменный
Общий поток : 2680 Кбит/сек
Дата кодирования : UTC 2012-04-03 17:39:46
Дата пометки : UTC 2012-04-03 17:39:46
gsst : 0
gstd : 1757170
gssd : BADC23A07MH1337290264380015
gshh : o-o.preferred.svo01s01.v19.lscache6.c.youtube.com
Видео
Идентификатор : 1
Формат : AVC
Формат/Информация : Advanced Video Codec
Профиль формата : High@L3.1
Параметр CABAC формата : Да
Параметр ReFrames формата : 1 кадр
Параметр GOP формата : M=1, N=30
Идентификатор кодека : avc1
Идентификатор кодека/Информация : Advanced Video Coding
Продолжительность : 29 м.
Битрейт : 2525 Кбит/сек
Максимальный битрейт : 10,5 Мбит/сек
Ширина : 1280 пикселей
Высота : 720 пикселей
Соотношение сторон : 16:9
Режим частоты кадров : Постоянный
Частота кадров : 25,000 кадров/сек
Цветовое пространство : YUV
Субдискретизация насыщенности : 4:2:0
Битовая глубина : 8 бит
Тип развёртки : Прогрессивная
Бит/(Пиксели*Кадры) : 0.110
Размер потока : 529 Мбайт (94%)
Дата пометки : UTC 2012-04-03 17:39:55
Аудио
Идентификатор : 2
Формат : AAC
Формат/Информация : Advanced Audio Codec
Профиль формата : LC
Идентификатор кодека : 40
Продолжительность : 29 м.
Вид битрейта : Переменный
Битрейт : 152 Кбит/сек
Максимальный битрейт : 189 Кбит/сек
Каналы : 2 канала
Расположение каналов : Front: L R
Частота : 44,1 КГц
Метод сжатия : С потерями
Размер потока : 31,8 Мбайт (6%)
Заголовок : IsoMedia File Produced by Google, 5-11-2011
Дата кодирования : UTC 2012-04-03 17:39:49
Дата пометки : UTC 2012-04-03 17:39:55

Magnet-URL

[Профиль]  [ЛС]   
 
Показать сообщения:    
Ответить на тему

Текущее время: 27-Фев 17:25



Вы не можете начинать темы
Вы не можете отвечать на сообщения
Вы не можете редактировать свои сообщения
Вы не можете удалять свои сообщения
Вы не можете голосовать в опросах
Вы не можете прикреплять файлы к сообщениям
Вы не можете скачивать файлы